移动
飘花电影网 > 恐怖片 > > 复合骨折

导演: Anthony J. Rickert-Epstein
编剧: Renae Geerlings / 泰勒·梅恩
主演: 泰勒·梅恩 / 缪斯·沃森 / 德里克·梅耶斯 / Leslie Easterbrook / Renae Geerlings / Alex Saxon
类型: 惊悚 / 恐怖
制片国家/地区: 美国
语言: 英语
IMDb链接: tt2125472
 
 
剧情简介  
  Michael Wolffsen在他妹妹可怕地遭遇死亡以后,他带着他的未婚妻以及他新认的孤儿侄子回到了家里,照顾他的父亲Gary. 自从上次Michael告别父亲后,父亲变了很多:他极其偏执得认为在外面有一种奇异的力量想要抓住他,而且痴迷于让他的家人不可反驳的接受这一观点。在Michael和他的家人最初认为老头子是患了老年痴呆的时候,他们很快发现Gary的恐惧不是空穴来风。屋外确有不可忽视的恶魔,而且不杀死Wolffsen的所有成员,他誓不罢休。
      Format : Matroska
      Format version : Version 4 / Version 2
      File size : 1.98 GiB
      Duration : 1h 30mn
      Overall bit rate : 3 115 Kbps
      Encoded date : UTC 2010-02-22 21:41:31
      Writing application : mkvmerge v5.9.0 ('On The Loose') built on Dec  9 2012 15:37:01
      Writing library : libebml v1.3.0 + libmatroska v1.4.0
      Attachment : Yes / Yes / Yes / Yes
   Video #1
      ID : 1
      Format : AVC
      Format/Info : Advanced Video Codec
      Format profile : High@L3.1
      Format settings, CABAC : Yes
      Format settings, ReFrames : 4 frames
      Muxing mode : Header stripping
      Codec ID : V_MPEG4/ISO/AVC
      Duration : 1h 30mn
      Bit rate : 2 800 Kbps
      Width : 1 280 pixels
      Height : 530 pixels
      Display aspect ratio : 2.40:1
      Frame rate : 23.976 fps
      Color space : YUV
      Chroma subsampling : 4:2:0
      Bit depth : 8 bits
      Scan type : Progressive
      Bits/(Pixel*Frame) : 0.172
      Stream size : 1.70 GiB (86%)
      Writing library : x264 core 116 r2074 2641b9e
      
   Audio #2
      ID : 2
      Format : AC-3
      Format/Info : Audio Coding 3
      Mode extension : CM (complete main)
      Format settings, Endianness : Big
      Muxing mode : Header stripping
      Codec ID : A_AC3
      Duration : 1h 30mn
      Bit rate mode : Constant
      Bit rate : 384 Kbps
      Channel(s) : 6 channels
      Channel positions : Front: L C R, Side: L R, LFE
      Sampling rate : 48.0 KHz
      Bit depth : 16 bits
      Compression mode : Lossy
      Stream size : 250 MiB (12%)
      Language : English
      Default : Yes
      Forced : No
电影截图

[下载地址]:

ftp://www:piaohua.com@dy44.piaohua.com:8240/飘花电影www.piaohua.com复合骨折720p中英.mkv





按键 Ctrl+D 把 飘花电影网 | 最新高清手机电影在线观看下载 加入收藏夹,下次找电影更方便!!
电影不错?分享给朋友: