移动
飘花电影网 > 科幻片 > > 太空人:最后一搏
太空人:最后一搏迅雷下载地址和剧情:

 

 

 

 

 

 

译名:太空人:最后一搏
片名:Astronaut:The.Last.Push
年代:2013
类型:科幻/冒险
制片国家/地区: 美国
语言: 英语
片长: 90
又名: 太空人:最后一搏 / Astronaut: Last Push
IMDb链接: tt1541123
.
剧情简介  
       迈克.福斯特奉命开往太空,这是一场探索木卫星生命之旅,却惨遭意外,太空人被困浩森宇宙,这一段重返地球的艰难旅程就此开启......
When a tragic accident cuts short the first manned mission to explorelife on the moons of Jupiter, Michael Forrest must make the 3 yearjourney home to Earth in pure solitude.

      Format : Matroska
      File size : 1.68 GiB
      Duration : 1h 28mn
      Overall bit rate : 2 720 Kbps
      Encoded date : UTC 2010-02-22 21:41:31
      Writing application : mkvmerge v5.9.0 ('On The Loose') built on Dec  9 2012 15:37:01
      Writing library : libebml v1.3.0 + libmatroska v1.4.0
   Video #1
      ID : 1
      Format : AVC
      Format/Info : Advanced Video Codec
      Format profile : [email protected]
      Format settings, CABAC : Yes
      Format settings, ReFrames : 4 frames
      Muxing mode : Container [email protected]
      Codec ID : V_MPEG4/ISO/AVC
      Duration : 1h 28mn
      Bit rate : 2 474 Kbps
      Nominal bit rate : 2 500 Kbps
      Width : 1 280 pixels
      Height : 720 pixels
      Display aspect ratio : 16:9
      Frame rate : 25.000 fps
      Resolution : 8 bits
      Colorimetry : 4:2:0
      Scan type : Progressive
      Bits/(Pixel*Frame) : 0.107
      Stream size : 1.53 GiB (91%)
      Writing library : x264 core 116 r2074 2641b9e
     
   Audio #2
      ID : 2
      Format : AC-3
      Format/Info : Audio Coding 3
      Codec ID : A_AC3
      Duration : 1h 28mn
      Bit rate mode : Constant
      Bit rate : 192 Kbps
      Channel(s) : 2 channels
      Channel positions : L R
      Sampling rate : 44.1 KHz
      Stream size : 121 MiB (7%)
电影截图




[下载地址]:                 
在线观看地址:http://www.piaohua.com/index.htm
http://www.piaohua.com/html/kehuan/2013/1215/ftp://www:[email protected]:7563/飘花电影piaohua.com太空人:最后一搏720p中文字幕.mkv

按键 Ctrl+D 把 飘花电影网 | 最新高清手机电影在线观看下载 加入收藏夹,下次找电影更方便!!
电影不错?分享给朋友: